Netlinkek

 Elfelejtett Jelszó
 Regisztrálok
Megtekintve: 69|Válasz: 0

[Videó] PublicAgent - Ssindy Rako (2018.05.01) 1080p

[Cím másolása megosztáshoz]

627

Téma

627

Válasz

5419

Pont

Gyémánt

Rank: 8Rank: 8

Pont
5419

  • Kapott 264 köszi
  • Adott 0 köszi
Elküldve 2018-5-16 06:42:10 | Mindent mutat |Olvasó mód






Video
ID                                       : 1
Format                                   : AVC
Format/Info                              : Advanced Video Codec
Format profile                           : High@L4.1
Format settings                          : CABAC / 5 Ref Frames
Format settings, CABAC                   : Yes
Format settings, RefFrames               : 5 frames
Codec ID                                 : avc1
Codec ID/Info                            : Advanced Video Coding
Duration                                 : 19 min 8 s
Bit rate                                 : 6 000 kb/s
Width                                    : 1 920 pixels
Height                                   : 1 080 pixels
Display aspect ratio                     : 16:9
Frame rate mode                          : Constant
Frame rate                               : 25.000 FPS
Color space                              : YUV
Chroma subsampling                       : 4:2:0
Bit depth                                : 8 bits
Scan type                                : Progressive
Bits/(Pixel*Frame)                       : 0.116
Stream size                              : 819 MiB (97%)
Writing library                          : x264 core 148 r2744 b97ae06


Audio
ID                                       : 2
Format                                   : AAC
Format/Info                              : Advanced Audio Codec
Format profile                           : LC
Codec ID                                 : mp4a-40-2
Duration                                 : 19 min 8 s
Duration_LastFrame                       : -1 ms
Bit rate mode                            : Constant
Bit rate                                 : 192 kb/s
Channel(s)                               : 2 channels
Channel positions                        : Front: L R
Sampling rate                            : 48.0 kHz
Frame rate                               : 46.875 FPS (1024 SPF)
Compression mode                         : Lossy
Stream size                              : 26.2 MiB (3%)
Default                                  : Yes
Alternate group                          : 1


Download:

A tartalom megtekintése vendégek számára nem lehetséges, kérlek jelentkezz be.



Válasz írásához be kell jelentkezni Belép | Regisztrálok

Pontszerzési szabályok

Archivum|Mobil|Darkroom|Netlinkek  

GMT+1, 2018-12-12 05:45 , Processed in 0.078075 second(s), 31 queries .

Powered by Discuz! X3.2

© 2001-2013 Comsenz Inc.

Gyorsválasz Fel Vissza a listához