Netlinkek

 Elfelejtett Jelszó
 Regisztrálok
Megtekintve: 329|Válasz: 0

Nyomd, bébi, nyomd (Baby Driver) 2017 TS.HUN.cinema.zsozso

[Cím másolása megosztáshoz]

247

Téma

247

Válasz

2098

Pont

Arany

Rank: 6Rank: 6

Pont
2098

Nem, témáim törölhetőek

  • Kapott 79 köszi
  • Adott 0 köszi
Elküldve 2017-7-19 10:46:46 | Mindent mutat |Olvasó mód
Premier cam
Évszám: 2017
Boritókép: http://kephost.com/images/2017/07/18/Nyomdbebinyomdccd98.jpg
Műfaj: Vígjáték
Megosztás: Egyéb tárhely 
Tömörítés: CAM
Szinkron: MD(mozis hang)









Nyomd, bébi, nyomd
(Baby Driver)

magyarul beszélő, angol-amerikai akció-vígjáték, 113 perc, 2017




rendező: Edgar Wright
forgatókönyvíró: Edgar Wright
operatőr: Bill Pope
producer: Tim Bevan, Eric Fellner, Nira Park
vágó: Paul Machliss




Ansel Elgort (Bébi)
Lily James (Deborah)
Kevin Spacey (Doc)
Jon Bernthal (Griff)
Eiza González (Darling)
Jon Hamm (Buddy)
Jamie Foxx (Bats)
Sky Ferreira
R. Marcos Taylor (Armie)




Bébi (Ansel Elgort) első ránézésre ártatlan, mint egy ministránsfiú. Hallgatag, odavan a jó zenéért, és egy helyes csajért (Lily James). Csak munka közben táltosodik meg - de akkor képtelenség utolérni, és nem is nagyon ajánlatos megpróbálni. Ugyanis Bébi bankrablók sofőrje: a legprofibbak is szeretnek rablás után vele menekülni, mert aki mellette ül a kocsiban, biztonságban érezheti magát.
De egy akció rosszul sül el, és a srácnak attól kezdve nem a zsaruk elől kell menekülnie, és nem mások bőrét menti. Doc, a félelmetes bandafőnök (Kevin Spacey) tűzött ki a fejére vérdíjat. És aki neki nem adja meg az elsőbbséget, az jobb, ha inkább megpróbál egy másik országban leparkolni...













Format                           : AVI
Format/Info                      : Audio Video Interleave
Format profile                   : OpenDML
File size                        : 1.27 GiB
Duration                         : 1h 49mn
Overall bit rate                 : 1 658 Kbps
Writing application              : MEncoder SVN-r33883(20110719-gcc4.5.2)
Writing library                  : MPlayer

Video
ID                               : 0
Format                           : MPEG-4 Visual
Format profile                   : Advanced Simple@L5
Format settings, BVOP            : 2
Format settings, QPel            : No
Format settings, GMC             : No warppoints
Format settings, Matrix          : Default (H.263)
Codec ID                         : XVID
Codec ID/Hint                    : XviD
Duration                         : 1h 49mn
Bit rate                         : 1 514 Kbps
Width                            : 968 pixels
Height                           : 544 pixels
Display aspect ratio             : 16:9
Frame rate                       : 29.970 fps
Color space                      : YUV
Chroma subsampling               : 4:2:0
Bit depth                        : 8 bits
Scan type                        : Progressive
Compression mode                 : Lossy
Bits/(Pixel*Frame)               : 0.096
Stream size                      : 1.16 GiB (91%)
Writing library                  : XviD 1.2.1 (UTC 2008-12-04)

Audio
ID                               : 1
Format                           : MPEG Audio
Format version                   : Version 1
Format profile                   : Layer 3
Mode                             : Joint stereo
Mode extension                   : MS Stereo
Codec ID                         : 55
Codec ID/Hint                    : MP3
Duration                         : 1h 48mn
Bit rate mode                    : Constant
Bit rate                         : 128 Kbps
Channel(s)                       : 2 channels
Sampling rate                    : 44.1 KHz
Compression mode                 : Lossy
Delay relative to video          : 33ms
Stream size                      : 99.5 MiB (8%)
Alignment                        : Aligned on interleaves
Interleave, duration             : 26 ms (0.79 video frame)
Interleave, preload duration     : 522 ms
Writing library                  : LAMEŞßĺX5¶”ŕĹŕ&¸őY‡






LETÖLTÉS:


A tartalom megtekintése vendégek számára nem lehetséges, kérlek jelentkezz be.



Tagok listája, akik már megköszönték

nemrosszember(2017-7-19 18:09)  
Válasz írásához be kell jelentkezni Belép | Regisztrálok

Pontszerzési szabályok

Archivum|Mobil|Darkroom|Netlinkek  

GMT+1, 2017-12-11 05:06 , Processed in 0.078766 second(s), 32 queries .

Powered by Discuz! X3.2

© 2001-2013 Comsenz Inc.

Gyorsválasz Fel Vissza a listához