Netlinkek

 Elfelejtett Jelszó
 Regisztrálok
Megtekintve: 84|Válasz: 0

[Videó] Blacked - Gia Paige (2018.05.15)

[Cím másolása megosztáshoz]

627

Téma

627

Válasz

5413

Pont

Elérhetetlen

Rank: 10Rank: 10Rank: 10

Pont
5413

  • Kapott 258 köszi
  • Adott 0 köszi
Elküldve 2018-5-15 22:05:38 | Mindent mutat |Olvasó mód







Video
ID                                       : 1
Format                                   : AVC
Format/Info                              : Advanced Video Codec
Format profile                           : High@L3
Format settings                          : CABAC / 5 Ref Frames
Format settings, CABAC                   : Yes
Format settings, ReFrames                : 5 frames
Codec ID                                 : avc1
Codec ID/Info                            : Advanced Video Coding
Duration                                 : 41 min 23 s
Bit rate                                 : 1 000 kb/s
Width                                    : 720 pixels
Height                                   : 400 pixels
Display aspect ratio                     : 16:9
Frame rate mode                          : Constant
Frame rate                               : 23.976 (24000/1001) FPS
Color space                              : YUV
Chroma subsampling                       : 4:2:0
Bit depth                                : 8 bits
Scan type                                : Progressive
Bits/(Pixel*Frame)                       : 0.145
Stream size                              : 296 MiB (88%)
Title                                    : RARBG - Blacked.18.05.15.Gia.Paige.XXX.SD.MP4-KLEENEX
Writing library                          : x264 core 152 r2851M ba24899


Audio
ID                                       : 2
Format                                   : AAC
Format/Info                              : Advanced Audio Codec
Format profile                           : LC
Codec ID                                 : mp4a-40-2
Duration                                 : 41 min 23 s
Bit rate mode                            : Constant
Bit rate                                 : 128 kb/s
Channel(s)                               : 2 channels
Channel positions                        : Front: L R
Sampling rate                            : 48.0 kHz
Frame rate                               : 46.875 FPS (1024 SPF)
Compression mode                         : Lossy
Stream size                              : 37.9 MiB (11%)
Title                                    : RARBG - Blacked.18.05.15.Gia.Paige.XXX.SD.MP4-KLEENEX
Default                                  : Yes
Alternate group                          : 1
Encoded date                             : UTC 2018-05-15 17:40:18
Tagged date                              : UTC 2018-05-15 17:40:18


Download:

A tartalom megtekintése vendégek számára nem lehetséges, kérlek jelentkezz be.



Válasz írásához be kell jelentkezni Belép | Regisztrálok

Pontszerzési szabályok

Archivum|Mobil|Darkroom|Netlinkek  

GMT+1, 2018-9-20 03:39 , Processed in 0.076618 second(s), 30 queries .

Powered by Discuz! X3.2

© 2001-2013 Comsenz Inc.

Gyorsválasz Fel Vissza a listához