Netlinkek

 Elfelejtett Jelszó
 Regisztrálok
Megtekintve: 221|Válasz: 0

Baywatch (Baywatch) 2017 CAM-.HUN.cinema.zsozso

[Cím másolása megosztáshoz]

151

Téma

151

Válasz

1272

Pont

Arany

Rank: 6Rank: 6

Pont
1272

Nem, témáim törölhetőek

  • Kapott 43 köszi
  • Adott 0 köszi
Elküldve 2017-7-19 10:43:00 | Mindent mutat |Olvasó mód
Premier cam
Évszám: 2017
Boritókép: http://kephost.com/images/2017/07/12/111.jpg
Műfaj: Vígjáték
Megosztás: Egyéb tárhely 
Tömörítés: CAM
Szinkron: MD(mozis hang)











Baywatch
(Baywatch)

magyarul beszélő, amerikai akció-vígjáték, 116 perc, 2017


rendező: Seth Gordon
forgatókönyvíró: Damian Shannon, Mark Swift
operatőr: Eric Steelberg
zene: Christopher Lennertz
producer: Beau Flynn, Dwayne Johnson, Ivan Reitman, Michael Berk, Gregory J. Bonann


szereplok:
Pamela Anderson (Casey Jean Parker)
Hannibal Buress (Dave)
Oscar Nunez (Rodriguez)



A nagysikerű tévésorozat moziverziójában az elkötelezett vízimentő, Mitch Buchanon (Dwayne Johnson) akasztja össze a bajuszt egy pimasz újonccal (Zac Efron). Ám a két vetélytárs összefog, amikor arról van szó, hogy fel kell göngyölíteniük egy bűnügyet, amely az egész öböl jövőjét veszélyezteti.
Feszes szituk és feszes izmok, dagadó hullámok és dagadó keblek, hatalmas poénok és parányi bikinik












Format                           : AVI
Format/Info                      : Audio Video Interleave
Format profile                   : OpenDML
File size                        : 2.79 GiB
Duration                         : 1h 52mn
Overall bit rate                 : 3 557 Kbps
Writing application              : MEncoder SVN-r33883(20110719-gcc4.5.2)
Writing library                  : MPlayer

Video
ID                               : 0
Format                           : MPEG-4 Visual
Format profile                   : Advanced Simple@L5
Format settings, BVOP            : 2
Format settings, QPel            : No
Format settings, GMC             : No warppoints
Format settings, Matrix          : Default (H.263)
Codec ID                         : XVID
Codec ID/Hint                    : XviD
Duration                         : 1h 52mn
Bit rate                         : 3 417 Kbps
Width                            : 1 280 pixels
Height                           : 432 pixels
Display aspect ratio             : 2.963
Frame rate                       : 29.970 fps
Color space                      : YUV
Chroma subsampling               : 4:2:0
Bit depth                        : 8 bits
Scan type                        : Progressive
Compression mode                 : Lossy
Bits/(Pixel*Frame)               : 0.206
Stream size                      : 2.68 GiB (96%)
Writing library                  : XviD 1.2.1 (UTC 2008-12-04)

Audio
ID                               : 1
Format                           : MPEG Audio
Format version                   : Version 1
Format profile                   : Layer 3
Mode                             : Joint stereo
Mode extension                   : MS Stereo
Codec ID                         : 55
Codec ID/Hint                    : MP3
Duration                         : 1h 52mn
Bit rate mode                    : Constant
Bit rate                         : 128 Kbps
Channel(s)                       : 2 channels
Sampling rate                    : 44.1 KHz
Compression mode                 : Lossy
Delay relative to video          : 33ms
Stream size                      : 103 MiB (4%)
Alignment                        : Aligned on interleaves
Interleave, duration             : 26 ms (0.78 video frame)
Interleave, preload duration     : 522 ms
Writing library                  : LAME3.98.4





LETÖLTÉS:


A tartalom megtekintése vendégek számára nem lehetséges, kérlek jelentkezz be.







Válasz írásához be kell jelentkezni Belép | Regisztrálok

Pontszerzési szabályok

Archivum|Mobil|Darkroom|Netlinkek  

GMT+1, 2017-10-23 14:17 , Processed in 0.080937 second(s), 32 queries .

Powered by Discuz! X3.2

© 2001-2013 Comsenz Inc.

Gyorsválasz Fel Vissza a listához