Netlinkek

 Elfelejtett Jelszó
 Regisztrálok
Megtekintve: 209|Válasz: 0

A kör (The Circle) 2017 DVDRip.MD.HUN.cinema.zsozso

[Cím másolása megosztáshoz]

151

Téma

151

Válasz

1272

Pont

Arany

Rank: 6Rank: 6

Pont
1272

Nem, témáim törölhetőek

  • Kapott 43 köszi
  • Adott 0 köszi
Elküldve 2017-7-4 19:51:11 | Mindent mutat |Olvasó mód
Premier cam
Évszám: 2017
Boritókép: http://kepkezelo.com/images/mkmttozdboo0ndv0gn3h.jpg
Műfaj: Dráma
Megosztás: Egyéb tárhely 
Tömörítés: DVDRip
Szinkron: MD(mozis hang)










A kör
(The Circle)

magyarul beszélő, amerikai dráma, 110 perc, 2017




rendező: James Ponsoldt
forgatókönyvíró: James Ponsoldt, Dave Eggers
operatőr: Matthew Libatique
zene: Danny Elfman
producer: Anthony Bregman, Gary Goetzman, Tom Hanks, James Ponsoldt
vágó: Lisa Lassek




Emma Watson (Mae Holland)
Tom Hanks (Bailey)
Karen Gillan (Annie)
John Boyega (Kalden)
Ellar Coltrane (Mercer)
Ellen Wong (Renata)




Mae (Emma Watson) élete teljesen megváltozik, amikor a Szilícium-völgy egyik legnagyobb tech-óriáscégénél kapja meg álmai állását. A lány villámgyorsan lépdel fel a ranglétrán, így a cég látnoki vezetője, Eamon Bailey (Tom Hanks) megkeresi azzal az ötlettel, hogy SeeChange nevű kameráját használva élje életét a nyilvánosság előtt. De senki sincs igazán biztonságban, amikor bárki követheti mások minden lépését...












Format                           : AVI
Format/Info                      : Audio Video Interleave
Format profile                   : OpenDML
File size                        : 1.64 GiB
Duration                         : 1h 45mn
Overall bit rate                 : 2 225 Kbps
Writing application              : Lavf54.63.104

Video
ID                               : 0
Format                           : AVC
Format/Info                      : Advanced Video Codec
Format profile                   : Main@L3.0
Format settings, CABAC           : Yes
Format settings, ReFrames        : 1 frame
Codec ID                         : H264
Duration                         : 1h 45mn
Bit rate                         : 1 961 Kbps
Width                            : 852 pixels
Height                           : 444 pixels
Display aspect ratio             : 1.919
Frame rate mode                  : Variable
Frame rate                       : 25.000 fps
Color space                      : YUV
Chroma subsampling               : 4:2:0
Bit depth                        : 8 bits
Scan type                        : Progressive
Bits/(Pixel*Frame)               : 0.207
Stream size                      : 1.44 GiB (88%)
Writing library                  : x264 core 129


Audio
ID                               : 1
Format                           : MPEG Audio
Format version                   : Version 1
Format profile                   : Layer 3
Mode                             : Joint stereo
Mode extension                   : MS Stereo
Codec ID                         : 55
Codec ID/Hint                    : MP3
Duration                         : 1h 45mn
Bit rate mode                    : Constant
Bit rate                         : 256 Kbps
Channel(s)                       : 2 channels
Sampling rate                    : 48.0 KHz
Compression mode                 : Lossy
Stream size                      : 193 MiB (12%)
Alignment                        : Aligned on interleaves
Interleave, duration             : 24 ms (0.60 video frame)
Writing library                  : LAME3.99.5




LETÖLTÉS:


A tartalom megtekintése vendégek számára nem lehetséges, kérlek jelentkezz be.






Tagok listája, akik már megköszönték

molly00713(2017-7-25 14:10)  nemrosszember(2017-7-5 02:29)  
Válasz írásához be kell jelentkezni Belép | Regisztrálok

Pontszerzési szabályok

Archivum|Mobil|Darkroom|Netlinkek  

GMT+1, 2017-10-23 14:07 , Processed in 0.080229 second(s), 34 queries .

Powered by Discuz! X3.2

© 2001-2013 Comsenz Inc.

Gyorsválasz Fel Vissza a listához