Netlinkek

 Elfelejtett Jelszó
 Regisztrálok
Megtekintve: 471|Válasz: 0

A vadászat mesterei /Africa's Hunters/HDTv/1080p/AC3/Hu-Cz

[Cím másolása megosztáshoz]

108

Téma

240

Válasz

3238

Pont

Gyémánt

Rank: 8Rank: 8

Pont
3238

  • Kapott 67 köszi
  • Adott 72 köszi
Elküldve 2017-3-10 15:29:07 | Mindent mutat |Olvasó mód
Bluray
Eredeti cím: Africa's Hunters
Évszám: 2016
Nemzetiség: Amerika
Boritókép: https://s25.postimg.org/x4ieylp5b/a_vad_szat.gif
Műfaj: Természeti
Megosztás: Data.hu (FREE) 
TechInfo: /HDTv/1080p/AC3/Hu-Cz/2016, 1.9 gb/rész
Tömörítés: TVRip
Szinkron: Szinkronizált
A vadászat mesterei /Africa's Hunters/HDTv/1080p/AC3/Hu-Cz
szinkronizált, amerikai dokumentumfil sorozat, 2016, 1.9 gb/rész




Egy leopárd alkonya /The Hungry Leopard/

Kamuti, az afrikai szavanna egyik legöregebb leopárdja bajban van: hiába uralja a Luangwa-völgy legjobb vadászterületét immár tíz éve, ma már messze nem olyan hatékony ragadozó, mint volt fénykorában. Ráadásul, ha sikerül is elejtenie egy-egy prédát, a vacsoráját gyakran ellopják tőle a szomszédos Nsefu-falka oroszlánjai…

Nemzedékek harca /Africa's Hunters/

Kamuti, az immár a tizenharmadik évében járó nőstény leopárd kihívások sorával kénytelen szembenézni: nem elég, hogy a legendás gyorsasága és testi ereje a múlté, s hogy az oroszlánok minduntalan ellopják tőle nagy nehezen elejtett prédáit, még egy fiatal, a territóriumára pályázó rivális is feltűnt a közelben. Kettejük harca az erő és a tapasztalat, a vitalitás és bölcsesség összecsapása lesz…

Harc az utolsó vérig /Bound By Blood/

A Nsefu-falka élete ennél szebb és gondtalanabb nem is lehetne: A Luangwa-völgy egyik legjobb területét uralják, a hímek erősek és összetartók, a nőstények közül pedig három is vemhes, s hamarosan újabb kölykökkel gyarapítják a klánt. Az idillnek azonban egy csapásra vége szakad, amikor feltűnik a közelben három agresszív hím oroszlán, melyek szándékai vészjóslóak: elüldözni a hímeket, megölni a kölyköket és megszerezni a nőstényeket és az egész vadászterületet.

Tini falka

A Nsefu oroszlánfalka élete túlzás nélkül nevezhető idillinek: hét gyönyörű kölyök játszadozik a felnőttek körül, erős hímek védelmezik a családot, és Zambia egyik legjobb vadászterülete az övék. Az élet azonban mégse fenékig tejfel a falkában, s ennek egy egyszerű oka van: tinédzserek is vannak a családban… A filmben hét növendékoroszlán sorsát követhetjük nyomon Afrika kíméletlen, minden éretlenséget keményen megbüntető vadonjában…


Túlélni az aszályt

A Zambia nyugati részén elterülő Liuwa-síkságot az utóbbi évtizedek legnagyobb szárazsága sújtja. A természeti csapás következményeként a gigantikus gnúcsordák messze elkerülik a vidéket, s a rájuk váró foltos hiénákat éhhalál veszélyezteti. Mit tehet egy falkavezér ilyen sanyarú körülmények között? Hogyan tartsa életben a kölykeit, melyeknek ennie kell – azonnal?


Video
ID                          : 2
Format                      : AVC
Format/Info                 : Advanced Video Codec
Format profile              : High@L4.1
Format settings, CABAC      : Yes
Format settings, ReFrames   : 4 frames
Codec ID                    : V_MPEG4/ISO/AVC
Duration                    : 43 min 59 s
Bit rate mode               : Variable
Bit rate                    : 5 600 kb/s
Maximum bit rate            : 41.4 Mb/s
Width                       : 1 920 pixels
Height                      : 1 080 pixels
Display aspect ratio        : 16:9
Frame rate mode             : Constant
Frame rate                  : 25.000 FPS
Standard                    : Component
Color space                 : YUV
Chroma subsampling          : 4:2:0
Bit depth                   : 8 bits
Scan type                   : Progressive

Audio #1
ID                          : 1
Format                      : AC-3
Format/Info                 : Audio Coding 3
Mode extension              : CM (complete main)
Format settings, Endianness : Big
Codec ID                    : A_AC3
Duration                    : 43 min 59 s
Bit rate mode               : Constant
Bit rate                    : 192 kb/s
Channel(s)                  : 2 channels
Channel positions           : Front: L R
Sampling rate               : 48.0 kHz
Frame rate                  : 31.250 FPS (1536 spf)
Bit depth                   : 16 bits
Compression mode            : Lossy
Stream size                 : 60.4 MiB (3%)
Default                     : Yes
Forced                      : No

Audio #2
ID                          : 3
Format                      : AC-3
Format/Info                 : Audio Coding 3
Mode extension              : CM (complete main)
Format settings, Endianness : Big
Codec ID                    : A_AC3
Duration                    : 43 min 59 s
Bit rate mode               : Constant
Bit rate                    : 192 kb/s
Channel(s)                  : 2 channels
Channel positions           : Front: L R
Sampling rate               : 48.0 kHz
Frame rate                  : 31.250 FPS (1536 spf)
Bit depth                   : 16 bits
Compression mode            : Lossy
Stream size                 : 60.4 MiB (3%)
Default                     : No
Forced                      : No


A tartalom megtekintése vendégek számára nem lehetséges, kérlek jelentkezz be.


Válasz írásához be kell jelentkezni Belép | Regisztrálok

Pontszerzési szabályok

Archivum|Mobil|Darkroom|Netlinkek  

GMT+1, 2018-7-22 00:16 , Processed in 0.084819 second(s), 35 queries .

Powered by Discuz! X3.2

© 2001-2013 Comsenz Inc.

Gyorsválasz Fel Vissza a listához